The Magician | Le Magicien | 1999 | Bütün Bölümler | WEB-DL | Türkçe Dublaj | MP4

The Magician | Le Magicien | 1999 | Bütün Bölümler | WEB-DL | Türkçe Dublaj | MP4

Türkçe Seslendirmeli Diziler


Like Tree6Likes
  • 6 Post By megalanya

Yeni Konu aç Cevapla
 
LinkBack Seçenekler Stil
Alt 09.Temmuz.2020, 21:18   #1
Yeni Üye
 
megalanya - ait Kullanıcı Resmi (Avatar)
 
Üyelik tarihi: 31.Aralık.2010
Bulunduğu yer: İstanbul
Mesajlar: 78
•Rep Puanı : 45010
•Rep Seviyesi :
megalanya has a reputation beyond reputemegalanya has a reputation beyond reputemegalanya has a reputation beyond reputemegalanya has a reputation beyond reputemegalanya has a reputation beyond reputemegalanya has a reputation beyond reputemegalanya has a reputation beyond reputemegalanya has a reputation beyond reputemegalanya has a reputation beyond reputemegalanya has a reputation beyond reputemegalanya has a reputation beyond repute
New Icon17 The Magician | Le Magicien | 1999 | Bütün Bölümler | WEB-DL | Türkçe Dublaj | MP4


[Üye Olmadan Linkleri Göremezsiniz. Üye Olmak için TIKLAYIN...]

The Magician (Fransızca: Le Magicien), Florian Ferrier, Gilles Adrien ve son olarak dizinin hikaye editörü olarak görev yapan Savin Yeatman-Eiffel tarafından oluşturulan bir Fransız animasyon televizyon dizisidir. 1997'de Gaumont Multimedia tarafından üretildi (ancak şu anda Xilam şirketine aittir). 1999'da ABD'de yayınlanan birkaç Avrupa şovundan biridir. Fox'ta yayınlandı.

Konusu

Bir dizi bilimsel keşif ve teknolojideki radikal gelişmeler, üçüncü binyıl boyunca toplumu yeniden düzenledi. Electro City'deki umut ve iyimserlikten yararlanan yaygın suç sendikaları (özellikle "Black Jack" Malone mafyası altında) tüm önemli pozisyonları gizlice kontrolleri altına aldılar. Kahraman Ace Cooper ve sihirli asistanı Cosmo tarafından defalarca yenilgiye uğratıldılar.

Dizi ayrıca Fox Kids´te de yayınlanmıştır.

Ekran görüntüsü:



Mediainfo:

:
General Complete name : 1_Race_For_Your_Life.mp4 Format : MPEG-4 Format profile : Base Media Codec ID : isom (isom/iso2/avc1/mp41) File size : 101 MiB Duration : 21mn 57s Overall bit rate : 646 Kbps Encoded date : UTC 1904-01-01 00:00:00 Tagged date : UTC 1904-01-01 00:00:00 Writing application : Lavf56.40.101 Video ID : 1 Format : AVC Format/Info : Advanced Video Codec Format profile : [email protected] Format settings, CABAC : Yes Format settings, ReFrames : 3 frames Codec ID : avc1 Codec ID/Info : Advanced Video Coding Duration : 21mn 56s Bit rate : 514 Kbps Width : 656 pixels Height : 480 pixels Display aspect ratio : 4:3 Frame rate mode : Constant Frame rate : 25.000 fps Color space : YUV Chroma subsampling : 4:2:0 Bit depth : 8 bits Scan type : Progressive Bits/(Pixel*Frame) : 0.065 Stream size : 80.7 MiB (80%) Encoded date : UTC 1904-01-01 00:00:00 Tagged date : UTC 1904-01-01 00:00:00 Audio ID : 2 Format : AAC Format/Info : Advanced Audio Codec Format profile : LC Codec ID : 40 Duration : 21mn 57s Bit rate mode : Constant Bit rate : 126 Kbps Channel(s) : 2 channels Channel positions : Front: L R Sampling rate : 44.1 KHz Frame rate : 43.066 fps (1024 spf) Compression mode : Lossy Stream size : 19.7 MiB (19%) Default : Yes Alternate group : 1 Encoded date : UTC 1904-01-01 00:00:00 Tagged date : UTC 1904-01-01 00:00:00

Ses ve görüntü kaynağı: Fanatik Film

Not: Seri 1 sezon ve 39 bölümden oluşmaktadır ve bütün bölümleri Türkçe dublaj olarak mevcuttur.

Not 2: Sunum Fanatik Film´den WEB-DL edilmiştir ve herhangi bir işlemden geçirilmemiştir.

Yandex.Disk:

:
https://yadi.sk/d/rI9zp-SWQ3nfeA

Google Drive:

:
https://drive.google.com/file/d/1TyxsuHkwFZgh1njAfBZii2xtGbWQDHlC/view

MEGA:

:
https://mega.nz/file/M6glVIoQ#Cvi_8eFGAZRRLIMUUZnJ9Sjk0m4tW1Lpjd7neVUiGSU

RAR şifresiz. İyi seyirler.

Konu megalanya tarafından (10.Temmuz.2020 Saat 00:06 ) değiştirilmiştir.
megalanya isimli Üye şimdilik offline konumundadır   Facebook'ta Paylaş                 Alıntı ile Cevapla
Cevapla

Bookmarks

Etiket
çizgi, dizi, download, indir, magician

Seçenekler
Stil

Yetkileriniz
Yeni konu açma yetkiniz
Mesajlara cevap verme yetkiniz
Eklenti yükleme yetkiniz
Mesajınızı değiştirme yetkiniz

[IMG] Kodları
HTML Kodları
Trackbacks are Kapalı
Pingbacks are Açık
Refbacks are Açık



Bütün Zaman Ayarları WEZ +4 olarak düzenlenmiştir. Şu Anki Saat: 20:59

Powered by vBulletin® Version 3.8.11
Copyright ©2000 - 2021, Jelsoft Enterprises Ltd.
SEO by vBSEO 3.6.0
Valid XHTML 1.0 Transitional
Not : Burası binlerce kişinin paylaşım ve yorum yaptığı bir forum sitesidir.Kullanıcıların paylaşımları ve yorumları onaydan geçmeden hemen yayınlanmaktadır.Paylaşım ve yorumlardan doğabilecek bütün sorumluluk kullanıcıya aittir. Eğer Türkiye Cumhuriyeti yasalarına uymayan ve telif hakkı içeren bir paylaşımın forumumuzda yapıldığına rastladıysanız lütfen bizi bu konuda bilgilendiriniz, en geç 48 saat içinde gereken yapılacaktır. Bilgilendirme yapabileceğiniz mail adresi: [email protected] Bu foruma üye olan herkes bu kuralları kabul etmiş sayılır...
ÇizgiDiyarı® Her Hakkı Saklıdır.