Spirited Away | 2001 | 720p | HDTVRip | Orjinal Dil | Altyazılı

Spirited Away | 2001 | 720p | HDTVRip | Orjinal Dil | Altyazılı

Animeler


Like Tree5Likes
  • 5 Post By megalanya

Yeni Konu aç Cevapla
 
LinkBack Seçenekler Stil
Alt 23.Haziran.2013, 17:49   #1
Yeni Üye
 
megalanya - ait Kullanıcı Resmi (Avatar)
 
Üyelik tarihi: 31.Aralık.2010
Bulunduğu yer: İstanbul
Mesajlar: 73
•Rep Puanı : 45010
•Rep Seviyesi :
megalanya has a reputation beyond reputemegalanya has a reputation beyond reputemegalanya has a reputation beyond reputemegalanya has a reputation beyond reputemegalanya has a reputation beyond reputemegalanya has a reputation beyond reputemegalanya has a reputation beyond reputemegalanya has a reputation beyond reputemegalanya has a reputation beyond reputemegalanya has a reputation beyond reputemegalanya has a reputation beyond repute
New Icon17 Spirited Away | 2001 | BD 1080p Hi10p Dual Audio FLAC | JP-EN | + Picture Book
Spirited Away | 2001 | BD 1080p Hi10p Dual Audio FLAC | JP-EN | + Picture Book



IMDb:

:
https://www.imdb.com/title/tt0245429/

Açıklama / Konu:

Ruhların Kaçışı [(Özgün adı: Sen to Chihiro no Kamikakushi) (Japonca: 千と千尋の神隠し)], Hayao Miyazaki tarafından yazılıp yönetilen 2003 yılında 'Uzun Metrajlı En İyi Animasyon Filmi' Oscar'ını kazanan Studio Ghibli yapımı Japon animasyon filmidir. Birçok ödül kazanan film aynı zamanda Oscar kazanan ilk animedir.

23 Ağustos 2016'da BBC tarafından yayımlanan ''21. Yüzyılın En İyi Filmleri'' listesinde 4. sırayı almıştır.

Chihiro, kasabasından taşınmış on yaşında küçük bir kızdır. Yeni taşındığı kasabada ise karşılarına ilginç bir yapı çıkar. Her ne kadar bu yapının içine girmek istemese de anne ve babasının peşinden girer. İşte bu ilginç yolculuk böyle başlar. Önceleri terk edilmiş görünen bu yapı geceleri büyük bir canlılık kazanır. Bu yapı ruhların bir tür dinlenme ve temizlenme yeridir. Chihiro sihirli yiyeceklerden yiyen ve domuza dönüşen anne babasını kurtarabilmek için genç Haku'nun yardımı ile oradan kurtulmaya çalışır. Chihiro bu kasabadan kurtulmak ve ailesini domuz olmaktan kurtarmak ister. Bu sırada Haku'yu daha önceden tanıdığını anlar.

Ekran Görüntüleri:



Mediainfo:

:
General Unique ID : 178431253674657663339734548226021033332 (0x863C9C04B237FF06B26E2CBEBD2C8574) Complete name : [deanzel] Spirited Away [BD 1080p Hi10p Dual Audio FLAC][72044eca].mkv Format : Matroska Format version : Version 4 File size : 14.7 GiB Duration : 2 h 4 min Overall bit rate mode : Variable Overall bit rate : 16.9 Mb/s Movie name : [Coalgirls-deanzel] Spirited Away [BD 1080p Hi10p Dual Audio FLAC] Encoded date : UTC 2015-07-08 15:28:35 Writing application : mkvmerge v7.8.0 ('River Man') 64bit Writing library : libebml v1.3.1 + libmatroska v1.4.2 Attachments : MyriadPro-Regular.otf / MyriadPro-SemiboldIt.otf / Vesta-Bold.otf / Vesta-Bold_2.otf / AR CENA_0.TTF / tahomabd.ttf / palai.ttf / pala.ttf / PPETRIAL.otf / DFGKyks4-Arrietty.ttf / DFPGothUW5-Arrietty.ttf / FOT-MatisseMinoriProB-En.otf / LTe53507.ttf / Memo-Condensed_Italic.ttf / Memo-Condensed_Normal.ttf / ARIALN.TTF / 方正准圆_GBK_0.TTF / msgothic.ttf Video ID : 1 Format : AVC Format/Info : Advanced Video Codec Format profile : High [email protected] Format settings : CABAC / 9 Ref Frames Format settings, CABAC : Yes Format settings, Reference frames : 9 frames Codec ID : V_MPEG4/ISO/AVC Duration : 2 h 4 min Bit rate : 9 041 kb/s Width : 1 920 pixels Height : 1 038 pixels Display aspect ratio : 1.85:1 Frame rate mode : Constant Frame rate : 23.976 (24000/1001) FPS Color space : YUV Chroma subsampling : 4:2:0 Bit depth : 10 bits Scan type : Progressive Bits/(Pixel*Frame) : 0.189 Stream size : 7.86 GiB (54%) Title : [Coalgirls] Spirited Away [BD 1080p Hi10p] Writing library : x264 core 129 r2245+729M 1a52e03 Encoding settings : cabac=1 / ref=9 / deblock=1:-1:-2 / analyse=0x3:0x133 / me=umh / subme=10 / psy=1 / fade_compensate=0.00 / psy_rd=1.10:0.10 / mixed_ref=1 / me_range=24 / chroma_me=1 / trellis=2 / 8x8dct=1 / cqm=0 / deadzone=21,11 / fast_pskip=1 / chroma_qp_offset=-3 / threads=18 / lookahead_threads=3 / sliced_threads=0 / nr=0 / decimate=1 / interlaced=0 / bluray_compat=0 / constrained_intra=0 / fgo=0 / bframes=8 / b_pyramid=2 / b_adapt=2 / b_bias=0 / direct=3 / weightb=1 / open_gop=0 / weightp=2 / keyint=250 / keyint_min=23 / scenecut=40 / intra_refresh=0 / rc_lookahead=120 / rc=crf / mbtree=1 / crf=17.0 / qcomp=0.80 / qpmin=0 / qpmax=81 / qpstep=4 / ip_ratio=1.40 / aq=3:0.90 Language : Japanese Default : Yes Forced : No Color range : Limited Color primaries : BT.709 Matrix coefficients : BT.709 Audio #1 ID : 2 Format : FLAC Format/Info : Free Lossless Audio Codec Codec ID : A_FLAC Duration : 2 h 4 min Bit rate mode : Variable Bit rate : 3 727 kb/s Channel(s) : 6 channels Channel layout : L R C LFE Ls Rs Sampling rate : 48.0 kHz Frame rate : 10.417 FPS (4608 SPF) Bit depth : 24 bits Compression mode : Lossless Delay relative to video : 77 ms Stream size : 3.25 GiB (22%) Title : English 5.1 FLAC Writing library : MakeMKV v1.9.4 darwin(x86-release) Language : English Default : Yes Forced : No Audio #2 ID : 3 Format : FLAC Format/Info : Free Lossless Audio Codec Codec ID : A_FLAC Duration : 2 h 4 min Bit rate mode : Variable Bit rate : 4 045 kb/s Channel(s) : 7 channels Channel layout : L R C LFE Cb Ls Rs Sampling rate : 48.0 kHz Frame rate : 11.719 FPS (4096 SPF) Bit depth : 24 bits Compression mode : Lossless Stream size : 3.52 GiB (24%) Title : Japanese 6.1 FLAC Writing library : libFLAC 1.2.1 (UTC 2007-09-17) Language : Japanese Default : No Forced : No Text #1 ID : 4 Format : ASS Codec ID : S_TEXT/ASS Codec ID/Info : Advanced Sub Station Alpha Duration : 2 h 4 min Bit rate : 4 b/s Count of elements : 54 Compression mode : Lossless Stream size : 4.11 KiB (0%) Title : Signs & Songs (Coalgirls) Language : English Default : Yes Forced : No Text #2 ID : 5 Format : ASS Codec ID : S_TEXT/ASS Codec ID/Info : Advanced Sub Station Alpha Duration : 2 h 4 min Bit rate : 71 b/s Count of elements : 1155 Compression mode : Lossless Stream size : 65.0 KiB (0%) Title : English Subs (Coalgirls/R1) Language : English Default : No Forced : No Text #3 ID : 6 Format : PGS Muxing mode : zlib Codec ID : S_HDMV/PGS Codec ID/Info : Picture based subtitle format used on BDs/HD-DVDs Duration : 2 h 4 min Bit rate : 6 904 b/s Count of elements : 2342 Stream size : 6.14 MiB (0%) Title : English Subs (Retail US-BD) Language : English Default : No Forced : No Text #4 ID : 7 Format : PGS Muxing mode : zlib Codec ID : S_HDMV/PGS Codec ID/Info : Picture based subtitle format used on BDs/HD-DVDs Duration : 2 h 4 min Bit rate : 8 616 b/s Count of elements : 2628 Stream size : 7.66 MiB (0%) Title : English SDH (Retail US-BD) Language : English Default : No Forced : No Text #5 ID : 8 Format : ASS Codec ID : S_TEXT/ASS Codec ID/Info : Advanced Sub Station Alpha Duration : 2 h 4 min Bit rate : 65 b/s Count of elements : 1174 Compression mode : Lossless Stream size : 59.8 KiB (0%) Title : French (Coalgirls/R1) Language : French Default : No Forced : No Text #6 ID : 9 Format : ASS Codec ID : S_TEXT/ASS Codec ID/Info : Advanced Sub Station Alpha Duration : 2 h 4 min Bit rate : 70 b/s Count of elements : 1111 Compression mode : Lossless Stream size : 64.1 KiB (0%) Title : German (Coalgirls/R1) Language : German Default : No Forced : No Text #7 ID : 10 Format : PGS Muxing mode : zlib Codec ID : S_HDMV/PGS Codec ID/Info : Picture based subtitle format used on BDs/HD-DVDs Duration : 2 h 0 min Bit rate : 5 754 b/s Count of elements : 2240 Stream size : 4.96 MiB (0%) Title : Korean Language : Korean Default : No Forced : No Text #8 ID : 11 Format : PGS Muxing mode : zlib Codec ID : S_HDMV/PGS Codec ID/Info : Picture based subtitle format used on BDs/HD-DVDs Duration : 2 h 4 min Bit rate : 8 468 b/s Count of elements : 2242 Stream size : 7.53 MiB (0%) Title : Cantonese Language : Chinese Default : No Forced : No Text #9 ID : 12 Format : PGS Muxing mode : zlib Codec ID : S_HDMV/PGS Codec ID/Info : Picture based subtitle format used on BDs/HD-DVDs Duration : 2 h 4 min Bit rate : 8 559 b/s Count of elements : 2302 Stream size : 7.61 MiB (0%) Title : Mandarin Language : Chinese Default : No Forced : No Menu 00:00:00.000 : en:00:00:00.000 00:01:39.099 : en:00:01:39.099 00:03:16.238 : en:00:03:16.238 00:07:23.526 : en:00:07:23.526 00:10:45.395 : en:00:10:45.395 00:17:03.022 : en:00:17:03.022 00:22:48.534 : en:00:22:48.534 00:28:36.048 : en:00:28:36.048 00:33:28.173 : en:00:33:28.173 00:38:21.674 : en:00:38:21.674 00:44:11.816 : en:00:44:11.816 00:48:26.821 : en:00:48:26.821 00:54:31.351 : en:00:54:31.351 01:02:09.017 : en:01:02:09.017 01:08:11.587 : en:01:08:11.587 01:14:36.847 : en:01:14:36.847 01:19:10.579 : en:01:19:10.579 01:25:39.760 : en:01:25:39.760 01:31:18.890 : en:01:31:18.890 01:37:33.806 : en:01:37:33.806 01:45:18.937 : en:01:45:18.937 01:50:25.118 : en:01:50:25.118 01:52:51.098 : en:01:52:51.098 01:55:14.199 : en:01:55:14.199 02:00:53.580 : en:02:00:53.580

Sunum kaynağı: TPB

RAR içeriği:

:
[deanzel] Spirited Away [BD 1080p Hi10p Dual Audio FLAC][72044eca].mkv Spirited Away Picture Book (Restored).cbz

İndir:

:
https://drive.google.com/file/d/1F9Vqhm94J56BGT5BQrXJ0OwLP7EBl9t0/view

RAR şifresiz. İyi seyirler.

Konu megalanya tarafından (23.Kasım.2022 Saat 18:27 ) değiştirilmiştir.
megalanya isimli Üye şuanda  online konumundadır   Facebook'ta Paylaş                 Alıntı ile Cevapla
Alt 23.Haziran.2013, 20:44   #2
Süper Üye
 
ulucak - ait Kullanıcı Resmi (Avatar)
 
Üyelik tarihi: 08.Eylül.2012
Mesajlar: 1,039
•Rep Puanı : 19524
•Rep Seviyesi :
ulucak has a reputation beyond reputeulucak has a reputation beyond reputeulucak has a reputation beyond reputeulucak has a reputation beyond reputeulucak has a reputation beyond reputeulucak has a reputation beyond reputeulucak has a reputation beyond reputeulucak has a reputation beyond reputeulucak has a reputation beyond reputeulucak has a reputation beyond reputeulucak has a reputation beyond repute
Standart
uzak doğu mistisizmi ve efsanelerini severim güzel bir anime en az on kere seyretmişimdir bence müthiş bir hayal gücü. bir baş yapıt. kızım da beğenerek bir kaç defa izledi.rüyalarına girdi çok korktu.ama hala izliyor .komşum totoro,.deniz kızı ponyo ve yürüyen şatoyla birlikte hitler arasında .paylaşım için teşekkürler
ulucak isimli Üye şuanda  online konumundadır   Facebook'ta Paylaş                 Alıntı ile Cevapla
Alt 23.Kasım.2022, 18:27   #3
Yeni Üye
 
megalanya - ait Kullanıcı Resmi (Avatar)
 
Üyelik tarihi: 31.Aralık.2010
Bulunduğu yer: İstanbul
Mesajlar: 73
•Rep Puanı : 45010
•Rep Seviyesi :
megalanya has a reputation beyond reputemegalanya has a reputation beyond reputemegalanya has a reputation beyond reputemegalanya has a reputation beyond reputemegalanya has a reputation beyond reputemegalanya has a reputation beyond reputemegalanya has a reputation beyond reputemegalanya has a reputation beyond reputemegalanya has a reputation beyond reputemegalanya has a reputation beyond reputemegalanya has a reputation beyond repute
Standart
Konu ve link tamamen güncellenmiştir.
megalanya isimli Üye şuanda  online konumundadır   Facebook'ta Paylaş                 Alıntı ile Cevapla
Alt 24.Kasım.2022, 13:06   #4
Yeni Üye
 
selen32t - ait Kullanıcı Resmi (Avatar)
 
Üyelik tarihi: 06.Mart.2021
Mesajlar: 6
•Rep Puanı : 10
•Rep Seviyesi :
selen32t is on a distinguished road
Standart
PAYLAŞIMLARINIZ İÇİN TEŞEKKÜRLER ACABA SİZDE ANİME VE ÇİZGİ DİZİ DİZİ ARŞİVİ YAPIYOR MUSUNUZ BİRKAÇ SERİ ARIYORUMDA
selen32t isimli Üye şuanda  online konumundadır   Facebook'ta Paylaş                 Alıntı ile Cevapla
Alt 24.Kasım.2022, 17:37   #5
Yeni Üye
 
megalanya - ait Kullanıcı Resmi (Avatar)
 
Üyelik tarihi: 31.Aralık.2010
Bulunduğu yer: İstanbul
Mesajlar: 73
•Rep Puanı : 45010
•Rep Seviyesi :
megalanya has a reputation beyond reputemegalanya has a reputation beyond reputemegalanya has a reputation beyond reputemegalanya has a reputation beyond reputemegalanya has a reputation beyond reputemegalanya has a reputation beyond reputemegalanya has a reputation beyond reputemegalanya has a reputation beyond reputemegalanya has a reputation beyond reputemegalanya has a reputation beyond reputemegalanya has a reputation beyond repute
post
Alıntı: selen32t´isimli üyeden Alıntı Mesajı göster
PAYLAŞIMLARINIZ İÇİN TEŞEKKÜRLER ACABA SİZDE ANİME VE ÇİZGİ DİZİ DİZİ ARŞİVİ YAPIYOR MUSUNUZ BİRKAÇ SERİ ARIYORUMDA

Evet. Türkçe dublaj anime ve çizgi dizi sorucaksanız elimde bu şekilde sadece birkaç eser mevcut. Yabancı dil anime ve çizgi dizi soruyorsanız çok fazla eser mevcut elimde.
megalanya isimli Üye şuanda  online konumundadır   Facebook'ta Paylaş                 Alıntı ile Cevapla
Alt 24.Kasım.2022, 19:26   #6
Yeni Üye
 
selen32t - ait Kullanıcı Resmi (Avatar)
 
Üyelik tarihi: 06.Mart.2021
Mesajlar: 6
•Rep Puanı : 10
•Rep Seviyesi :
selen32t is on a distinguished road
Standart
anladım yanıtınız için teşekkürler ben dinozor tom diabolic maske sefiller gibi serileri arıyorum denk gelmedi hiç
selen32t isimli Üye şuanda  online konumundadır   Facebook'ta Paylaş                 Alıntı ile Cevapla
Alt Dün, 17:25   #7
Yeni Üye
 
megalanya - ait Kullanıcı Resmi (Avatar)
 
Üyelik tarihi: 31.Aralık.2010
Bulunduğu yer: İstanbul
Mesajlar: 73
•Rep Puanı : 45010
•Rep Seviyesi :
megalanya has a reputation beyond reputemegalanya has a reputation beyond reputemegalanya has a reputation beyond reputemegalanya has a reputation beyond reputemegalanya has a reputation beyond reputemegalanya has a reputation beyond reputemegalanya has a reputation beyond reputemegalanya has a reputation beyond reputemegalanya has a reputation beyond reputemegalanya has a reputation beyond reputemegalanya has a reputation beyond repute
post
Alıntı: selen32t´isimli üyeden Alıntı Mesajı göster
anladım yanıtınız için teşekkürler ben dinozor tom diabolic maske sefiller gibi serileri arıyorum denk gelmedi hiç

10 yıl önce hatırlıyorum Diabolik'in bütün bölümleri Türkçe olarak sunum halinde internette bulunuyordu. Yer imlerime kaydettim. Daha sonra arşivime eklemek için geri dönüp baktığımda her şey silinmiş gitmişti. Bir daha hiç Diabolik'i tam olarak ve Türkçe dublaj olarak görmedim.

Sefiller, The Mask, Diabolik vs. animasyon serileri arşivimde mevcut ancak İngilizce.
megalanya isimli Üye şuanda  online konumundadır   Facebook'ta Paylaş                 Alıntı ile Cevapla
Cevapla

Bookmarks

Seçenekler
Stil

Yetkileriniz
Yeni konu açma yetkiniz
Mesajlara cevap verme yetkiniz
Eklenti yükleme yetkiniz
Mesajınızı değiştirme yetkiniz

[IMG] Kodları
HTML Kodları
Trackbacks are Kapalı
Pingbacks are Açık
Refbacks are Açık


Benzer Konular
Konu Konuyu Başlatan Forum Cevaplar Son Mesaj
Sen To Chihiro No Kamikakushi-Spirited Away/Ruhların Kaçışı(2001)DVDRip Türkçe Dublaj vkopuzoglu Animeler 1 03.Mayıs.2011 20:19
Ruhların Kaçışı – Spirited Away 2001 (Türkçe Dublaj) DVDRip ozaki Çizgi Filmler 0 10.Mart.2011 14:41


Bütün Zaman Ayarları WEZ +4 olarak düzenlenmiştir. Şu Anki Saat: 19:37

Powered by vBulletin® Version 3.8.11
Copyright ©2000 - 2022, Jelsoft Enterprises Ltd.
SEO by vBSEO 3.6.0
Valid XHTML 1.0 Transitional
Not : Burası binlerce kişinin paylaşım ve yorum yaptığı bir forum sitesidir.Kullanıcıların paylaşımları ve yorumları onaydan geçmeden hemen yayınlanmaktadır.Paylaşım ve yorumlardan doğabilecek bütün sorumluluk kullanıcıya aittir. Eğer Türkiye Cumhuriyeti yasalarına uymayan ve telif hakkı içeren bir paylaşımın forumumuzda yapıldığına rastladıysanız lütfen bizi bu konuda bilgilendiriniz, en geç 48 saat içinde gereken yapılacaktır. Bilgilendirme yapabileceğiniz mail adresi: [email protected] Bu foruma üye olan herkes bu kuralları kabul etmiş sayılır...
ÇizgiDiyarı® Her Hakkı Saklıdır.